#TITLE:Scarlet;
#SUBTITLE:- Karin Opening;
#ARTIST:BRACE'd;
#TITLETRANSLIT:;
#SUBTITLETRANSLIT:;
#ARTISTTRANSLIT:;
#CREDIT:Xion Steel, As33 for images;
#BANNER:Scarlet.png;
#BACKGROUND:Scarlet bg.png;
#LYRICSPATH:Karin OP - Scarlet.lrc;
#CDTITLE:SS credit logo.png;
#MUSIC:Scarlet.mp3;
#OFFSET:0.910;
#SAMPLESTART:55.058;
#SAMPLELENGTH:12.000;
#SELECTABLE:YES;
#BPMS:0.000=138.000;
#STOPS:;
#BGCHANGES:2.750=Karin OP - Scarlet.avi=1.000=1=0=0,
202.500=Scarlet bg2.png=1.000=1=0=0,
99999=-nosongbg-=1.000=0=0=0 // don't automatically add -songbackground-
;
// cache tags:
#FIRSTBEAT:3.000;
#LASTBEAT:207.000;
#SONGFILENAME:songs/Otaku's Dream 3rd Anime Mix/[Xion Steel] Scarlet - Karin OP/Karin OP - Scarlet.sm;
#HASMUSIC:1;
#HASBANNER:1;
#MUSICLENGTH:91.820;
// end cache tags

//---------------dance-single - Blank----------------
#NOTES:
     dance-single:
     Blank:
     Challenge:
     10:
     1.000,1.000,1.000,1.000,0.762,451.000,96.000,133.000,0.000,0.000:





0000
0000
0000
0000
0000
0000
2001
0100
,
0010
0000
0100
0000
0010
3000
1002
0000
0200
0000
0000
0300
0020
0000
0033
1000
,
0100
0010
1000
0001
0010
1000
0100
0010
1000
0001
0010
0100
0010
1000
0001
0100
,
1000
0010
0001
1000
0100
0010
0101
0100
0110
0000
1002
0000
0010
0000
0010
0000
,
0100
0000
2000
0000
0000
3003
1000
0100
0010
1000
0021
0000
0100
0000
1000
0000
,
1000
0030
2002
0000
0000
3003
0220
0000
0000
0330
1000
0000
0120
0000
0000
0001
,
0000
0030
0100
0000
2000
0000
0000
0100
0000
0000
3010
0001
2000
0000
3000
0220
,
0000
0000
0330
0000
0022
0000
0033
0000
1010
0000
0100
0000
0022
0000
0000
0033
0200
0000
0000
0000
2300
0000
0000
0000
0010
0000
0000
0000
3100
0000
0010
0000
,
0001
0010
2000
0000
0010
0000
3010
0001
1000
0010
0200
0000
0010
0000
0001
0000
,
1000
0300
2002
0000
0000
3003
0100
1000
0010
0001
1000
0100
0022
0000
0033
2200
,
0000
3300
2001
0000
0010
0010
0100
0000
0001
0001
0010
0000
0010
0000
0010
0000
,
0100
0010
0100
0000
0100
0001
0100
3001
0200
0320
0032
0023
0230
2300
3001
0000
,
0010
1000
0000
0000
0110
0001
0000
1100
0000
0010
0100
0000
0000
0000
0110
0001
,
1000
0100
0000
0000
0010
0001
0000
0110
0000
0010
1000
0000
0000
0000
0110
1000
,
0001
0100
0000
0000
0010
0100
0000
0011
0000
1000
0010
0000
0000
0000
0110
1000
,
0100
0001
0000
0000
0010
0001
0000
0110
0000
2000
3002
0003
1001
0000
0000
0000
,
2000
0000
0000
3000
0010
0001
0100
0000
0010
0000
1001
0000
0100
0000
0001
0100
,
1000
0000
0001
0000
1000
0000
0100
0010
0001
1000
0100
0001
2200
0000
0000
3300
,
0011
0000
0110
0000
1100
0000
0001
0000
0010
0000
1100
0000
0022
0000
0033
0220
,
0000
0330
2000
0001
0010
0000
0001
0100
0010
0000
0100
3010
1001
0000
0000
0000
,
0200
0000
0000
0300
0001
0010
1000
0000
0010
0000
0022
0000
0000
0033
0100
0001
,
1000
0000
0001
0000
1000
0100
0001
1000
0100
0001
0010
0000
2200
0000
0000
3300
,
0020
0000
0200
0330
2002
0000
0000
3003
0220
0000
0000
0330
0102
0000
1000
0100
,
0010
0100
1000
0100
0010
0100
1000
0000
0010
0100
1000
0003
0202
0000
0000
0303
,
2000
0000
0020
0000
0000
3030
0110
0000
0100
0000
0011
0000
0010
0000
1000
0000
,
1100
0000
0010
0000
1100
0000
1000
0000
0110
0000
0001
0000
2002
0000
0000
3003
,
0100
0001
1000
0000
0010
0000
2000
0000
0000
0000
3200
0000
0010
0000
0001
0000
,
0010
1000
0010
0000
0001
0000
1000
0300
0100
0000
0010
0000
0102
0000
1000
0000
,
0010
0000
0000
0000
2000
0000
0000
3000
0020
0000
0000
0030
0200
0000
0000
0300
0000
0000
0000
0000
0010
0000
1003
0000
0102
0000
0000
0000
0010
0000
0000
0000
,
0100
0000
0000
0000
2000
0000
0000
3000
0200
0000
0000
0300
0020
0000
0000
0030
0000
0000
0000
0000
0100
0000
0003
0000
0220
0000
0000
0000
0000
0000
0330
0000
,
2020
3030
2200
0000
0000
3300
2002
0000
0000
3003
0102
0000
1000
0100
1000
0100
,
1000
0100
0010
0100
1000
0100
0010
0100
1000
0100
1000
0103
1001
0000
0010
0100
,
1001
0000
0010
0001
0010
1000
0100
0001
0100
0000
0110
0000
1001
0000
0100
0001
,
0010
0000
0101
0000
0000
0000
1000
0001
0010
0000
1002
0000
0010
0000
0100
0000
,
1000
0003
2000
0000
0000
0000
0020
0000
0000
3030
1020
0000
0100
0000
0000
0001
,
0000
0030
0021
0000
0100
0000
0000
0001
0000
0030
2001
0000
0100
0000
0000
0010
,
0000
3000
0110
0000
1010
0000
1010
0010
0110
0000
0202
0000
0000
0303
1000
0010
,
0100
0000
0202
0000
0000
0303
0001
0100
1000
0000
0012
0000
1000
0000
0100
0000
,
0010
0003
2000
0000
0000
0000
0200
0000
0000
3300
0010
0100
1000
0010
0100
0002
,
0000
0003
1001
0000
0110
0000
0000
0011
0000
0000
2010
0000
0100
0000
0100
0010
,
0100
0000
0100
0010
0100
3010
0101
0000
0110
0000
2002
0000
0000
3003
0010
0100
,
1000
0000
0202
0000
0000
0303
0100
0010
1000
0000
0201
0000
0010
0000
0001
0000
,
1000
0300
0020
0000
0000
0000
0002
0000
0000
0033
1000
0100
0012
0000
0000
0203
,
0000
0300
0001
0100
2010
0000
0000
3020
0000
0030
0100
0010
0102
0000
0003
2020
,
0000
3030
0220
0330
0101
0000
1100
0100
0110
0000
2002
0000
0000
3003
0100
0010
,
1000
0000
0202
0000
0000
0303
0010
0100
1000
0000
1002
0000
0100
0000
0010
0000
,
0100
0000
0003
0000
2000
0000
0000
0000
0000
0000
0000
0000
3200
0000
0000
0000
0320
0000
0000
0000
0032
0000
0000
0003
2200
0000
0000
0000
3300
0000
2020
0000
,
0000
3030
0120
0000
0100
1000
0100
0000
0100
1000
0001
0000
0100
0001
0100
0000
,
1000
0000
0000
0000
1000
0000
0000
0000
1000
0001
1000
0001
1000
0000
0030
0000
0100
0000
0000
0000
0100
0000
0010
0000
0001
0000
0100
0000
0000
0000
0010
0000
,
0000
0010
0000
0100
0000
1000
0000
0010
0000
1000
0100
0000
0001
0001
0000
0001
,
0000
0110
0000
1000
0000
0100
0000
0010
0000
0110
1002
0000
0000
0100
0020
0000
,
0030
0010
2000
0000
3000
0100
0020
0000
0000
0000
0000
0000
0033
0000
0000
0000
;

//---------------dance-single - Blank----------------
#NOTES:
     dance-single:
     Blank:
     Hard:
     9:
     0.857,0.761,0.566,1.000,0.272,345.000,52.000,154.000,0.000,0.000:














0000
0000
0000
2001
,
0010
0000
0000
0000
0010
3000
1002
0000
0200
0000
0000
0300
0020
0000
0033
0000
,
0100
0100
0010
0010
1000
1000
0010
0010
,
1000
0000
0000
0000
1000
0000
0000
0000
0001
0000
0000
0000
0100
0000
0000
0000
0010
0000
0000
0000
0002
0000
0000
0000
0010
0000
0000
0000
0020
0000
0000
0030
,
0200
0000
0000
0300
2000
0000
0000
0000
0000
0000
3003
0000
2000
0000
0000
0000
3020
0000
0000
0000
0230
0000
0000
0000
1000
0000
0000
0000
0000
0000
0000
0000
,
0000
0000
0300
0000
2002
0000
0000
0000
0000
0000
3003
0000
0220
0000
0000
0000
0000
0000
0330
0000
2000
0000
0000
3000
0020
0000
0000
0000
0000
0000
0002
0000
,
0000
0000
0033
0000
0200
0000
0000
0000
2300
0000
0000
0000
0000
0000
0200
0000
0000
0000
0000
3300
0020
0000
0000
0030
2000
0000
0000
0000
3000
0000
0220
0000
,
0000
0000
0330
0000
0002
0000
0003
0000
1000
0000
0000
0000
0020
0000
0000
0030
0200
0000
0000
0300
2000
0000
0000
0000
0010
0000
0000
0000
3200
0000
0000
0000
,
0302
2003
0000
3020
2030
3200
0010
0000
,
0000
0000
0300
0000
2002
0000
0000
0000
0000
0000
3003
0000
0200
0000
0000
0000
0320
0000
0000
0000
2030
0000
0000
3000
0002
0000
0000
0000
0000
0000
2000
0000
,
0000
3003
2001
0000
0100
0000
0100
0000
0010
0000
0010
0000
0001
0000
0001
0000
,
0100
0000
0100
0000
0010
0000
0001
3000
0100
0010
0100
0010
0100
0000
0001
0000
,
0010
1000
0000
0000
0010
0001
0000
1000
0000
0010
0100
0000
0000
0000
0100
0000
,
1000
0100
0000
0000
0010
0001
0000
0100
0000
0010
1000
0000
0000
0000
0010
1000
,
0001
0100
0000
0000
0010
0100
0000
0001
0000
1000
0010
0000
0000
0000
0100
1000
,
0100
0001
0000
0000
0010
0001
0000
0110
0000
2002
0000
3003
1001
0000
0000
0000
,
2000
0000
0000
3000
0010
0000
0100
0000
0010
0000
0001
0000
0100
0000
0010
0000
,
1000
0000
0001
0000
1000
0000
0200
0000
0302
0000
0203
0300
2200
0000
0000
3300
,
0001
0000
0100
0000
1000
0000
0001
0000
0010
0000
0100
0000
0002
0000
0003
0020
,
0000
0030
2000
0000
0100
0000
0010
0000
0010
0000
0001
3000
1001
0000
0000
0000
,
0200
0000
0000
0300
0001
0000
1000
0000
0010
0000
0022
0000
0000
0033
0100
0000
,
1000
0000
0000
0000
0001
0000
0000
0000
2000
0000
0000
0000
3002
0000
0000
0000
0203
0000
0000
0000
0320
0000
0000
0030
2200
0000
0000
0000
0000
0000
3300
0000
,
0020
0000
0000
0030
0200
0000
0000
0300
2002
0000
0000
0000
0000
0000
3003
0000
0220
0000
0000
0000
0000
0000
0330
0000
0102
0000
0000
0000
1000
0000
0000
0000
,
0100
0000
0010
0000
1000
0000
0100
0000
0010
0000
1000
0003
0202
0000
0000
0303
,
2000
0000
0020
0000
0000
3030
0010
0000
0100
0000
0001
0000
0010
0000
1000
0000
,
1000
0000
0010
0000
0100
0000
1000
0000
0010
0000
0001
0000
2002
0000
0000
3003
,
0100
1000
0010
2000
0000
3200
0010
0001
,
0010
0000
0010
0000
0001
0000
1000
0300
0100
0000
0010
0000
0102
0000
1000
0000
,
0010
0000
0000
0000
2000
0000
0000
3000
0020
0000
0000
0030
0200
0000
0000
0300
1000
0000
0000
0000
0010
0000
0003
0000
0102
0000
0000
0000
0010
0000
0000
0000
,
0100
0000
0000
0000
2000
0000
0000
3000
0200
0000
0000
0300
0020
0000
0000
0030
0000
0000
0000
0000
0100
0000
0003
0000
0220
0000
0000
0000
0000
0000
0330
0000
,
2000
3000
2200
0000
0000
3300
2002
0000
0000
3003
0102
0000
1000
0000
0100
0000
,
1000
0000
0100
0000
0010
0000
0100
0000
0100
0000
1000
0003
1001
0000
0010
0000
,
1001
0100
1001
0010
0110
0110
1001
0100
,
0010
0101
0000
1000
0010
0012
0010
0000
,
0000
0003
2000
0000
0000
0000
0020
0000
0000
3030
0020
0000
0200
0000
0300
0002
,
0000
0033
0020
0000
0200
0000
0300
0002
0000
0033
2000
0000
0200
0000
0300
0020
,
0000
3030
0101
0000
1010
0000
0010
0000
0100
0000
0202
0000
0000
0303
1000
0000
,
0100
0000
0202
0000
0000
0303
0001
0000
1000
0000
0012
0000
1000
0000
0000
0000
,
0000
0003
2000
0000
0000
0000
0200
0000
0000
3300
0020
0000
2030
0000
3000
0002
,
0000
0003
1001
0000
0110
0000
0000
0001
0000
0000
2010
0000
0100
0000
0010
0000
,
0010
0000
0100
0000
0100
3000
0001
0000
0100
0000
2002
0000
0000
3003
0010
0000
,
1000
0000
0202
0000
0000
0303
0100
0000
1000
0000
0201
0000
0010
0000
0000
0000
,
0000
0000
0300
0000
0020
0000
0000
0000
0000
0000
0000
0000
0002
0000
0000
0000
0000
0000
0033
0000
2000
0000
0000
3000
0002
0000
0000
0000
0000
0000
0203
0000
,
0000
0000
0300
0000
0002
0000
0000
0003
2000
0000
0000
0000
0000
0000
3020
0000
0000
0000
0030
0000
0200
0000
0000
0300
0002
0000
0000
0000
0003
0000
2020
0000
,
0000
3030
0220
0330
0001
0000
1000
0000
0010
0000
2002
0000
0000
3003
0100
0000
,
1000
0000
0202
0000
0000
0303
0010
0000
1000
0000
1002
0000
0100
0000
0000
0000
,
0000
0000
0003
0000
2000
0000
0000
0000
0000
0000
0000
0000
3200
0000
0000
0000
0320
0000
0000
0000
0032
0000
0000
0003
2200
0000
0000
0000
3300
0000
2020
0000
,
0000
3030
0120
0000
0100
0000
0100
0000
1000
0000
1000
0000
0100
0000
0100
0000
,
0001
0000
0001
0030
1000
0100
1000
0100
1000
0000
0100
0000
0100
0010
0000
0010
,
0000
0010
0000
0100
0000
1000
0000
0010
0000
1000
0100
0000
0001
0001
0000
0100
,
0000
0010
0000
1000
0000
0100
0000
0100
0000
0010
0002
0000
0000
0000
0020
0000
,
0000
0030
2000
0000
0000
3000
0020
0000
0000
0000
0000
0000
0033
0000
0000
0000
;

//---------------dance-single - Blank----------------
#NOTES:
     dance-single:
     Blank:
     Medium:
     6:
     0.527,0.507,0.152,0.871,0.185,245.000,14.000,80.000,0.000,0.000:
















0000
0000
0000
2001
,
0010
0000
0000
0000
0010
0000
0001
0000
0200
0000
0000
0300
0020
0000
3030
0000
,
0100
0010
1000
0010
,
1000
0000
0010
0001
0000
0002
0000
1000
,
0000
0000
2000
0000
0000
0003
0100
0000
0000
3000
0200
0000
0000
0000
0000
0000
,
0000
0300
0002
0000
0000
0003
0200
0000
0000
0300
1000
0000
0010
0000
0000
0100
,
0000
0000
0001
0000
1000
0000
0000
0100
0000
0000
0010
0000
1000
0000
0000
0100
,
0000
0010
0100
1000
0000
2000
0000
3100
,
0000
0200
0000
0310
0000
0020
0000
0000
,
0000
0030
2002
0000
0000
3003
0100
0000
0010
0000
1000
0000
0002
0000
0000
2003
,
0000
3000
2001
0000
0100
0000
0000
0000
0010
0000
0000
0000
0001
0000
0000
0000
,
0100
0000
0000
0000
0010
0000
0000
3000
0100
0000
0010
0000
0100
0000
0001
0000
,
0000
1000
0000
0000
0010
0000
0000
1000
0000
0000
0100
0000
0000
0000
0100
0000
,
0000
0100
0000
0000
0001
0000
0000
0100
0000
0000
1000
0000
0000
0000
0010
0000
,
0000
0100
0000
0000
0010
0000
0000
0001
0000
0000
0010
0000
0000
0000
0100
0000
,
0000
0001
0000
0000
0010
0000
0000
0100
0000
0002
0000
0003
1001
0000
0000
0000
,
2000
0000
0000
3000
0010
0000
0100
0000
0010
0000
0100
0000
0000
0000
0010
0000
,
2000
0000
0000
0000
0000
3000
0100
0000
0001
0000
0100
0000
0020
0000
0000
0030
,
0001
0000
0100
0000
1000
0000
0000
0000
0000
0000
0100
0000
0002
0000
0003
0020
,
0000
0030
2000
0000
0100
0000
0000
0000
0010
0000
0000
3000
1001
0000
0000
0000
,
0200
0000
0000
0300
0001
0000
1000
0000
0000
0000
0002
0000
0000
0003
0100
0000
,
1000
0000
0000
0000
1000
0000
0001
0000
0100
0000
0010
0000
2000
0000
0000
3000
,
0020
0000
0000
0030
0002
0000
0000
0003
0200
0000
0000
0300
0002
0000
0000
0000
,
0100
0000
0000
0000
1000
0000
0000
0000
0010
0000
0000
0003
0202
0000
0000
0303
,
2000
0000
3020
0000
0000
0030
0200
0000
0000
0000
0302
0000
0000
0000
0000
0003
,
2000
3200
0320
0032
,
0103
1000
0000
2000
0000
3200
0010
0000
,
0010
0000
0000
0000
0001
0000
0000
0300
0100
0000
0010
0000
2100
0000
0000
0000
,
0000
0000
0001
0000
0010
0000
0100
0000
0000
0000
0000
3000
0102
0000
0000
0000
,
0000
0000
1000
0000
0100
0000
0010
0000
0000
0000
0000
0003
0220
0000
0000
0330
,
2000
0000
0200
0000
0000
3300
2002
0000
0000
3003
0102
0000
1000
0000
0000
0000
,
1000
0000
0000
0000
0010
0000
0000
0000
0100
0000
0000
0003
0001
0000
0010
0000
,
0001
0100
1000
0100
0010
0100
1001
0100
,
0000
0000
0200
0000
0000
0000
0001
0000
0000
0300
0002
0000
0000
0000
0000
0000
,
0000
0003
2000
0000
0000
0000
3020
0000
0000
0000
0031
0000
0100
0000
0000
0001
,
0000
0000
0010
0000
0100
0000
0000
0001
0000
0000
1000
0000
0100
0000
0000
0010
,
0000
0010
0100
0001
0000
0002
0000
0100
,
0000
0003
0200
0000
0000
0000
0010
0000
0000
0300
0020
0000
0000
0000
0000
0000
,
0000
0030
2000
0000
0000
0000
0200
0000
0000
3300
0020
0000
2000
0000
3030
0001
,
0000
0000
1000
0000
0010
0000
0000
0002
0000
0000
2003
0000
0100
0000
0000
0000
,
0010
0000
0000
0000
0100
3000
0001
0000
0000
0000
0002
0000
0000
0003
0010
0000
,
0000
0000
0020
0000
0000
0030
0100
0000
0000
0000
0200
0000
0000
0000
0000
0000
,
0000
0300
0020
0000
0000
0000
0002
0000
0000
0033
1000
0000
0001
0000
0000
0100
,
0000
0000
0001
0000
1000
0000
0000
0010
0000
0000
0100
0000
0020
0000
0000
2030
,
0000
0000
3010
0000
0001
0000
1000
0000
0000
0000
2000
0000
0000
3000
0100
0000
,
0000
0000
0200
0000
0000
0300
0001
0000
0000
0000
0002
0000
0000
0000
0000
0000
,
0000
0003
2000
0000
0000
3000
0100
0000
0010
0000
0001
0000
0200
0000
0300
2000
,
0000
3000
0120
0000
0100
0000
0000
0000
1000
0000
0000
0000
0100
0000
0000
0000
,
0001
0000
0000
0030
1000
0000
0100
0000
1000
0000
0100
0000
0100
0000
0000
0010
,
0000
0100
0000
0010
0000
0100
0000
1000
0000
0000
0010
0000
0000
0001
0000
0100
,
0000
0010
0000
1000
0000
0100
0000
1000
0000
0000
0022
0000
0000
0000
0000
0000
,
0000
0000
0000
0033
;

//---------------dance-single - Blank----------------
#NOTES:
     dance-single:
     Blank:
     Easy:
     3:
     0.321,0.395,0.098,0.664,0.082,136.000,9.000,61.000,0.000,0.000:



0000
0000
0000
2020
,
0000
0000
0000
0000
0000
0030
0002
0000
0000
0000
0000
0000
0000
0000
3003
0000
,
0100
0000
1000
0000
,
0100
0000
0000
0000
0000
0002
0000
0000
,
0000
0003
2000
0000
0000
0000
0000
0000
0000
3000
0200
0000
0000
0000
0000
0000
,
0000
0300
0200
0000
0000
0000
0000
0000
0000
0300
0000
0000
0010
0000
0000
0000
,
0100
1000
0100
1000
,
0100
0000
0100
0000
0000
2000
0000
3000
,
0000
0200
0000
0300
0000
0020
0000
0000
,
0000
0030
0002
0000
0000
0003
0000
0000
0010
0000
0000
0000
0002
0000
0000
0000
,
0000
0003
2002
0000
0000
0000
0000
0000
0000
0000
0000
0000
0000
0000
0000
0000
,
0000
0000
0000
0000
0000
0000
0000
3003
0100
0000
0000
0000
0000
0000
0010
0000
,
0000
1000
0000
0000
0010
0000
0000
1000
0000
0000
0000
0000
0000
0000
0001
0000
,
0000
0100
0000
0000
0001
0000
0000
0100
0000
0000
0000
0000
0000
0000
0010
0000
,
0000
0100
0000
0000
0010
0000
0000
0100
0000
0000
0000
0000
0000
0000
0100
0000
,
0000
1000
0000
0000
0010
0000
0000
0001
0000
0000
0000
0000
1001
0000
0000
0000
,
2000
0000
0000
3000
0010
0000
0000
0000
0010
0000
0000
0000
0010
0000
0000
0000
,
2000
0000
0000
0000
0000
3000
0000
0000
0010
0000
0000
0000
0020
0000
0000
0030
,
1000
1000
0001
0002
,
0000
0003
2000
0000
0000
0000
0000
0000
0000
0000
0000
3000
1001
0000
0000
0000
,
0200
0000
0000
0300
0001
0000
0000
0000
0100
0000
0000
0000
0010
0000
0000
0000
,
1000
1000
0010
2000
,
0000
0000
0000
3000
0020
0000
0000
0000
0000
0000
0000
0030
0002
0000
0000
0000
,
0000
0000
0000
0000
0000
0000
0000
0000
0000
0000
0000
0003
0200
0000
0000
0300
,
2000
3000
0010
0000
0100
0000
0001
0000
,
2000
3200
0320
0032
,
0103
0000
0000
0000
0020
0000
0000
0000
0000
0030
0200
0000
0000
0000
0000
0000
,
0000
0000
0000
0000
0000
0000
0000
0300
0100
0000
0000
0000
2010
0000
0000
0000
,
0000
0000
0000
0000
0010
0000
0000
0000
0000
0000
0000
3000
0102
0000
0000
0000
,
0000
0000
0000
0000
0100
0000
0000
0000
0000
0000
0000
0003
0020
0000
0000
0030
,
0200
0000
0000
0000
0000
0300
2000
0000
0000
3000
2002
0000
0000
0000
0000
0000
,
0000
0000
0000
0000
0000
0000
0000
0000
0000
0000
0000
3003
0001
0000
0000
0000
,
0001
0000
1000
0000
0000
0200
0000
0300
,
0000
0000
0200
0000
0000
0000
0000
0000
0000
0300
0002
0000
0000
0000
0000
0000
,
0000
0003
2000
0000
0000
0000
0000
0000
0000
0000
3000
0000
0100
0000
0000
0000
,
0010
0100
0010
1000
,
0001
1000
0002
0000
,
0000
0003
0200
0000
0000
0000
0000
0000
0000
0300
0020
0000
0000
0000
0000
0000
,
0000
0030
0200
0000
0000
0000
0000
0000
0000
0300
2000
0000
0000
0000
3000
0000
,
0010
0000
0000
0000
0010
0000
0000
2000
0000
0000
0000
0000
0000
0000
0000
0000
,
0000
0000
0000
0000
0000
3000
0000
0000
0000
0000
0002
0000
0000
0003
0000
0000
,
0000
0000
0020
0000
0000
0030
0000
0000
0000
0000
0200
0000
0000
0000
0000
0000
,
0000
0300
0002
0000
0000
0000
0000
0000
0000
0003
0000
0000
0001
0000
0000
0000
,
0010
1000
0010
1000
,
0010
0000
0000
0000
0001
0000
0000
0000
2000
0000
0000
0000
0000
3000
0000
0000
,
0000
0000
0200
0000
0000
0300
0000
0000
0000
0000
0002
0000
0000
0000
0000
0000
,
0000
0003
2000
0000
0000
3000
0000
0000
0010
0000
0000
0000
0200
0000
0000
0000
,
0000
0300
0220
0000
0000
0000
0000
0000
0000
0000
0000
0000
0000
0000
0000
0000
,
0000
0000
0000
0330
1000
0000
0000
0000
1000
0000
0000
0000
0100
0000
0000
0100
,
0000
0000
0000
0100
0000
0000
0000
0100
0000
0000
0010
0000
0000
0000
0000
0001
,
0000
0000
0000
0001
0000
0000
0000
0001
0000
0000
0022
0000
0000
0000
0000
0000
,
0000
0000
0000
0033
;

//---------------dance-single - Blank----------------
#NOTES:
     dance-single:
     Blank:
     Beginner:
     1:
     0.145,0.141,0.065,0.185,0.011,70.000,6.000,17.000,0.000,0.000:

0000
0000
0000
2020
,
0000
0000
0000
0000
,
0000
0000
0000
0000
,
0000
0000
0000
0000
3030
0001
0000
0000
,
0000
1000
0000
0000
0000
0100
0000
0000
,
0000
0000
0000
0010
,
0000
1000
0000
1000
,
0000
0000
0100
0000
0000
1000
0000
0000
,
0000
0100
0000
0000
0000
0010
0000
0000
,
0000
0001
0000
0000
0000
0000
0020
0000
,
0000
0000
0000
0000
,
0000
0000
0000
0000
0000
0000
0000
0030
0000
0000
0000
0000
0100
0000
0000
0000
,
0000
0010
0000
0000
,
0000
0001
0000
0000
,
0000
0010
0000
0000
,
0000
0010
0000
1001
,
0000
0010
0000
0010
,
0000
0100
0000
0010
,
0000
1000
0000
2000
,
0000
0000
0000
0000
0000
0000
0000
0000
0000
0000
0000
3000
0110
0000
0000
0000
,
0000
0001
0000
0010
,
0000
1000
0000
0002
,
0000
0000
0000
0000
,
0000
0000
0000
0000
0000
0000
0000
0000
0000
0000
0000
0003
0100
0000
0000
0000
,
0000
0010
0000
0000
0000
0001
0000
0000
,
0002
0000
0000
0000
,
0000
0000
0000
0000
0003
0200
0000
0000
,
0000
0000
0000
0000
0000
0000
0000
0000
0000
0000
0000
0300
2020
0000
0000
0000
,
0000
0000
0000
0000
0000
0000
0000
0000
0000
0000
0000
3030
0202
0000
0000
0000
,
0000
0000
0000
0000
0000
0000
0000
0000
0000
0000
0000
0303
0200
0000
0000
0000
,
0000
0000
0000
0000
0000
0000
0000
0000
0000
0300
0002
0000
0000
0000
0000
0000
,
0000
0000
0000
0000
0000
0000
0000
0000
0000
0000
0000
0003
0010
0000
0000
0000
,
0000
0000
1000
0000
0000
0100
0000
0000
,
0000
0100
0000
0000
0000
0001
0000
0000
,
0000
1000
0000
0000
0000
0000
0100
0000
,
0000
0100
0000
1000
,
0000
0000
1000
0000
0000
0001
0000
0000
,
0000
0100
0000
0000
0000
0010
0000
0000
,
0000
0200
0000
0000
0000
0000
0000
0000
,
0000
0000
0000
0000
,
0000
0000
0000
0000
0000
0300
0000
0000
0000
0000
0001
0000
0000
0000
0000
0000
,
0000
0010
0000
0000
0000
0100
0000
0000
,
0000
0001
0000
0000
0000
0000
0001
0000
,
0000
1000
0000
1000
,
0000
0000
0001
0000
0000
1000
0000
0000
,
0000
0100
0000
0000
0000
0001
0000
0000
,
0000
0200
0000
0000
0000
0000
0000
0000
,
0000
0000
0000
0000
,
0000
0000
0000
0000
0000
0300
0100
0000
,
0000
0000
0000
0100
0000
0000
0000
0000
0000
0000
0010
0000
0000
0000
0000
0000
,
0000
0000
0000
0100
0000
0000
0000
0000
0000
0000
0022
0000
0000
0000
0000
0000
,
0000
0000
0000
0033
;
